<?xml version="1.0" standalone="no"?>
<!DOCTYPE svg PUBLIC "-//W3C//DTD SVG 1.1//EN" "http://www.w3.org/Graphics/SVG/1.1/DTD/svg11.dtd">
<svg xmlns="http://www.w3.org/2000/svg">
<defs >
<font id="SourceSansPro" horiz-adv-x="495" ><font-face
    font-family="Source Sans Pro ExtraLight"
    units-per-em="1000"
    panose-1="2 11 3 3 3 4 3 2 2 4"
    ascent="984"
    descent="-273"
    alphabetic="0" />
<glyph unicode=" " glyph-name="space" horiz-adv-x="200" />
<glyph unicode="!" glyph-name="exclam" horiz-adv-x="248" d="M112 172L108 608V670H140V608L136 172H112ZM124 -12Q110 -12 99 -2T88 26Q88 46 99 56T124 66Q138 66 149 56T160 26Q160 8 149 -2T124 -12Z" />
<glyph unicode="&quot;" glyph-name="quotedbl" horiz-adv-x="336" d="M90 494L84 634V694H122V634L116 494H90ZM218 494L212 634V694H250V634L244 494H218Z" />
<glyph unicode="#" glyph-name="numbersign" horiz-adv-x="472" d="M94 0L120 218H36V246H124L146 424H56V452H148L174 650H202L176 452H332L358 650H386L360 452H442V424H358L336 246H422V218H332L306 0H278L304 218H148L122 0H94ZM152 246H308L330 424H174L152 246Z" />
<glyph unicode="$" glyph-name="dollar" horiz-adv-x="472" d="M228 -110V-11Q174 -7 132 16T62 66L80 88Q93 75 110 63T148 40T193 23T244 16Q310 16 345 52T380 146Q380 198 359 230T305 285T234 324T164 363T110 416T88 500Q88 531 98 557T128 604T172 636T228
651V750H258V652Q307 649 337 629T394 582L374 562Q360 576 347 587T318 607T285 619T242 624Q215 624 193 615T154 589T129 550T120 502Q120 455 141 427T195 380T266 343T336 303T390 243T412 148Q412 112 400 84T367 35T318 2T258 -12V-110H228Z" />
<glyph unicode="%" glyph-name="percent" horiz-adv-x="798" d="M180 258Q115 258 79 311T42 466Q42 566 78 619T180 672Q245 672 281 619T318 466Q318 365 282 312T180 258ZM180 284Q230 284 259 332T288 466Q288 552 259 599T180 646Q130 646 101 599T72 466Q72
380 101 332T180 284ZM196 -12L566 672H598L228 -12H196ZM618 -12Q553 -12 517 41T480 196Q480 296 516 349T618 402Q683 402 719 349T756 196Q756 95 720 42T618 -12ZM618 14Q668 14 697 62T726 196Q726 282 697 329T618 376Q568 376 539 329T510 196Q510 110
539 62T618 14Z" />
<glyph unicode="&amp;" glyph-name="ampersand" horiz-adv-x="562" d="M224 -12Q186 -12 153 0T94 36T53 92T38 166Q38 198 49 225T80 276T124 321T175 362Q154 405 142 447T130 528Q130 559 139 585T166 631T207 661T260 672Q311 672 337 639T364 556Q364 524
351 498T316 447T266 401T210 357Q245 289 295 226T399 115Q437 162 463 219T508 342H538Q518 273 489 211T420 97Q490 39 550 16L538 -12Q508 -1 474 20T401 74Q365 36 322 12T224 -12ZM160 530Q160 495 170 457T199 380Q225 399 249 418T292 459T322 503T334
554Q334 570 330 586T317 615T294 636T258 644Q235 644 217 635T186 611T167 574T160 530ZM226 16Q270 16 309 37T380 93Q326 144 275 207T187 339Q163 321 142 302T105 262T80 218T70 168Q70 133 82 105T116 58T166 27T226 16Z" />
<glyph unicode="&apos;" glyph-name="quotesingle" horiz-adv-x="208" d="M90 494L84 634V694H122V634L116 494H90Z" />
<glyph unicode="(" glyph-name="parenleft" horiz-adv-x="270" d="M222 -174Q160 -74 125 35T90 278Q90 411 125 520T222 730L240 718Q180 623 149 511T118 278Q118 157 149 45T240 -162L222 -174Z" />
<glyph unicode=")" glyph-name="parenright" horiz-adv-x="270" d="M48 -174L30 -162Q90 -67 121 45T152 278Q152 399 121 511T30 718L48 730Q110 630 145 521T180 278Q180 145 145 36T48 -174Z" />
<glyph unicode="*" glyph-name="asterisk" horiz-adv-x="386" d="M130 478L108 494L162 580L74 614L82 638L174 612L180 712H206L212 614L304 638L312 614L224 580L278 494L256 478L194 560L130 478Z" />
<glyph unicode="+" glyph-name="plus" horiz-adv-x="472" d="M220 112V316H34V344H220V548H252V344H438V316H252V112H220Z" />
<glyph unicode="," glyph-name="comma" horiz-adv-x="208" d="M60 -150L48 -126Q80 -108 100 -78T120 -5Q116 -6 108 -6Q93 -6 83 3T72 30Q72 48 83 57T108 66Q128 66 140 50T152 4Q152 -47 126 -86T60 -150Z" />
<glyph unicode="-" glyph-name="hyphen" horiz-adv-x="294" d="M40 234V264H256V234H40Z" />
<glyph unicode="." glyph-name="period" horiz-adv-x="208" d="M104 -12Q90 -12 79 -2T68 26Q68 46 79 56T104 66Q118 66 129 56T140 26Q140 8 129 -2T104 -12Z" />
<glyph unicode="/" glyph-name="slash" horiz-adv-x="360" d="M8 -160L328 710H358L38 -160H8Z" />
<glyph unicode="0" glyph-name="zero" horiz-adv-x="472" d="M236 -12Q145 -12 98 75T50 322Q50 482 97 567T236 652Q327 652 374 567T422 322Q422 162 375 75T236 -12ZM236 16Q307 16 348 94T390 322Q390 471 349 547T236 624Q165 624 124 548T82 322Q82 173
123 95T236 16Z" />
<glyph unicode="1" glyph-name="one" horiz-adv-x="472" d="M86 0V28H238V580H124V602Q162 608 191 618T242 640H268V28H410V0H86Z" />
<glyph unicode="2" glyph-name="two" horiz-adv-x="472" d="M42 0V20Q123 103 183 168T283 288T342 387T362 476Q362 507 354 534T327 581T282 612T216 624Q171 624 132 600T62 538L40 558Q75 597 118 624T218 652Q303 652 348 604T394 476Q394 427 373 379T312
276T215 161T88 24Q115 26 142 27T196 28H426V0H42Z" />
<glyph unicode="3" glyph-name="three" horiz-adv-x="472" d="M230 -12Q192 -12 162 -4T107 17T64 46T30 78L50 100Q64 84 81 69T121 42T170 23T232 16Q266 16 294 27T344 57T376 104T388 166Q388 200 375 229T334 278T263 310T158 322V352Q215 352 254 363T318
395T353 441T364 498Q364 555 327 589T228 624Q183 624 144 603T78 552L58 574Q90 606 131 629T228 652Q263 652 294 642T347 612T383 564T396 500Q396 468 387 442T361 397T321 363T272 340V336Q302 330 329 316T376 281T408 231T420 168Q420 127 406 94T366 37T305
1T230 -12Z" />
<glyph unicode="4" glyph-name="four" horiz-adv-x="472" d="M312 0V196H16V212L322 640H342V224H440V196H342V0H312ZM58 224H312V476Q312 497 313 529T316 582H312Q300 562 287 545T260 506L58 224Z" />
<glyph unicode="5" glyph-name="five" horiz-adv-x="472" d="M224 -12Q186 -12 156 -4T102 16T60 43T26 74L46 96Q60 81 77 67T115 41T164 23T226 16Q259 16 289 29T342 66T378 123T392 198Q392 279 348 325T228 372Q190 372 163 360T106 328L80 344L104 640H390V612H132L110
366Q136 382 164 392T230 402Q270 402 305 390T367 354T409 291T424 200Q424 149 407 110T362 43T297 2T224 -12Z" />
<glyph unicode="6" glyph-name="six" horiz-adv-x="472" d="M258 -12Q161 -12 108 66T54 288Q54 390 73 459T124 572T198 633T286 652Q328 652 359 636T414 592L394 570Q372 597 344 610T284 624Q244 624 208 607T145 550T102 448T86 293Q120 335 162 359T252
384Q337 384 382 334T428 186Q428 143 415 107T378 45T323 3T258 -12ZM260 16Q289 16 314 29T357 66T385 120T396 186Q396 222 388 253T362 307T317 343T250 356Q215 356 172 333T87 255Q90 203 101 159T134 84T186 34T260 16Z" />
<glyph unicode="7" glyph-name="seven" horiz-adv-x="472" d="M192 0Q196 99 208 181T245 337T304 477T388 612H44V640H430V622Q372 545 335 473T274 328T241 174T226 0H192Z" />
<glyph unicode="8" glyph-name="eight" horiz-adv-x="472" d="M240 -12Q196 -12 160 1T97 38T55 94T40 164Q40 197 52 225T82 277T124 318T170 348V352Q153 363 137 378T107 411T86 450T78 498Q78 532 90 560T125 608T176 640T240 652Q280 652 312 640T365 605T398
552T410 486Q410 459 401 434T378 388T348 349T318 320V316Q338 303 358 289T394 255T420 211T430 154Q430 119 417 89T378 37T318 1T240 -12ZM288 330Q332 365 355 403T378 486Q378 514 369 539T342 583T299 613T240 624Q211 624 188 615T147 588T120 548T110
498Q110 462 125 436T166 391T224 357T288 330ZM240 16Q276 16 305 27T355 56T387 100T398 154Q398 193 381 220T335 268T269 303T194 334Q141 304 107 262T72 164Q72 133 84 106T119 59T172 28T240 16Z" />
<glyph unicode="9" glyph-name="nine" horiz-adv-x="472" d="M222 284Q257 284 300 307T385 385Q382 437 371 481T338 556T286 606T212 624Q183 624 158 611T115 574T87 520T76 454Q76 418 84 387T110 333T155 297T222 284ZM186 -12Q144 -12 113 4T58 48L78 70Q100
43 128 30T188 16Q228 16 264 33T327 90T370 192T386 347Q352 305 310 281T220 256Q135 256 90 306T44 454Q44 497 57 533T94 595T148 637T214 652Q311 652 364 574T418 352Q418 250 399 181T348 68T274 7T186 -12Z" />
<glyph unicode=":" glyph-name="colon" horiz-adv-x="208" d="M104 378Q90 378 79 388T68 416Q68 436 79 446T104 456Q118 456 129 446T140 416Q140 398 129 388T104 378ZM104 -12Q90 -12 79 -2T68 26Q68 46 79 56T104 66Q118 66 129 56T140 26Q140 8 129 -2T104 -12Z" />
<glyph unicode=";" glyph-name="semicolon" horiz-adv-x="208" d="M104 378Q90 378 79 388T68 416Q68 436 79 446T104 456Q118 456 129 446T140 416Q140 398 129 388T104 378ZM60 -150L48 -126Q80 -108 100 -78T120 -5Q116 -6 108 -6Q93 -6 83 3T72 30Q72 48 83
57T108 66Q128 66 140 50T152 4Q152 -47 126 -86T60 -150Z" />
<glyph unicode="&lt;" glyph-name="less" horiz-adv-x="472" d="M438 152L34 314V350L438 512V480L198 386L66 334V330L198 278L438 184V152Z" />
<glyph unicode="=" glyph-name="equal" horiz-adv-x="472" d="M34 416V444H438V416H34ZM34 473V501H438V473H34Z" />
<glyph unicode="&gt;" glyph-name="greater" horiz-adv-x="472" d="M34 152V184L274 278L406 330V334L274 386L34 480V512L438 350V314L34 152Z" />
<glyph unicode="?" glyph-name="question" horiz-adv-x="394" d="M164 172Q158 214 167 248T192 311T228 366T267 417T297 470T310 530Q310 554 303 576T282 616T244 643T190 654Q152 654 117 637T56 588L36 606Q65 638 103 660T192 682Q228 682 256 670T303 638T332
590T342 532Q342 498 330 469T299 412T260 359T222 305T196 244T192 172H164ZM182 -12Q168 -12 157 -2T146 26Q146 46 157 56T182 66Q196 66 207 56T218 26Q218 8 207 -2T182 -12Z" />
<glyph unicode="@" glyph-name="at" horiz-adv-x="802" d="M382 -142Q310 -142 250 -119T145 -51T77 57T52 202Q52 299 84 377T170 511T294 597T442 628Q513 628 570 606T667 543T728 444T750 316Q750 253 734 205T691 124T634 75T572 58Q533 58 507 76T478 134H476Q449
105 419 85T354 64Q331 64 311 72T276 97T251 139T242 198Q242 233 254 272T289 344T347 398T426 420Q480 420 510 372H512L520 412H546L512 228Q476 86 574 86Q598 86 624 101T671 145T706 216T720 314Q720 380 700 433T644 523T556 580T440 600Q371 600 307 572T192
492T112 367T82 204Q82 131 103 73T164 -27T260 -91T384 -114Q435 -114 476 -101T554 -64L568 -88Q484 -142 382 -142ZM356 92Q409 92 470 162L502 340Q482 370 465 381T424 392Q389 392 361 375T313 329T283 267T272 200Q272 140 296 116T356 92Z" />
<glyph unicode="A" glyph-name="A" horiz-adv-x="520" d="M182 396L135 264H384L338 396Q317 456 299 510T262 626H258Q240 564 222 510T182 396ZM10 0L246 660H274L510 0H476L394 236H125L42 0H10Z" />
<glyph unicode="B" glyph-name="B" horiz-adv-x="574" d="M100 0V660H272Q372 660 429 621T486 500Q486 447 460 409T382 356V352Q448 341 488 301T528 192Q528 97 463 49T284 0H100ZM132 366H252Q360 366 407 401T454 498Q454 572 405 602T258 632H132V366ZM132
28H272Q324 28 365 37T436 67T480 117T496 190Q496 265 438 301T272 338H132V28Z" />
<glyph unicode="C" glyph-name="C" horiz-adv-x="562" d="M328 -12Q267 -12 217 12T131 82T76 190T56 332Q56 410 76 473T132 580T219 648T334 672Q391 672 433 648T502 594L482 572Q455 604 418 623T334 642Q277 642 232 621T155 559T107 461T90 332Q90 261 106
203T154 104T230 41T330 18Q383 18 423 39T502 102L522 82Q484 38 439 13T328 -12Z" />
<glyph unicode="D" glyph-name="D" horiz-adv-x="600" d="M100 0V660H248Q324 660 380 637T472 570T526 466T544 332Q544 258 527 197T473 93T380 25T248 0H100ZM132 28H244Q314 28 364 51T447 114T495 211T510 332Q510 397 495 452T448 547T365 609T244 632H132V28Z" />
<glyph unicode="E" glyph-name="E" horiz-adv-x="510" d="M100 0V660H454V632H132V366H402V338H132V28H464V0H100Z" />
<glyph unicode="F" glyph-name="F" horiz-adv-x="470" d="M100 0V660H452V632H132V354H402V326H132V0H100Z" />
<glyph unicode="G" glyph-name="G" horiz-adv-x="600" d="M334 -12Q271 -12 220 12T132 82T76 190T56 332Q56 410 76 473T134 580T225 648T344 672Q377 672 404 665T452 647T490 621T520 594L500 572Q474 601 437 621T344 642Q285 642 238 621T158 559T108 461T90
332Q90 261 107 203T155 104T232 41T336 18Q384 18 426 32T494 72V290H330V318H526V62Q496 29 448 9T334 -12Z" />
<glyph unicode="H" glyph-name="H" horiz-adv-x="634" d="M100 0V660H132V366H502V660H534V0H502V338H132V0H100Z" />
<glyph unicode="I" glyph-name="I" horiz-adv-x="232" d="M100 0V660H132V0H100Z" />
<glyph unicode="J" glyph-name="J" horiz-adv-x="456" d="M200 -12Q147 -12 108 12T44 82L70 98Q96 54 127 36T202 18Q265 18 295 56T326 178V660H358V174Q358 135 350 101T323 42T274 3T200 -12Z" />
<glyph unicode="K" glyph-name="K" horiz-adv-x="550" d="M100 0V660H132V280H134L470 660H510L298 418L538 0H500L274 394L132 234V0H100Z" />
<glyph unicode="L" glyph-name="L" horiz-adv-x="460" d="M100 0V660H132V28H442V0H100Z" />
<glyph unicode="M" glyph-name="M" horiz-adv-x="698" d="M100 0V660H152L294 260L348 110H352Q366 148 378 185T404 260L546 660H598V0H566V460Q566 499 567 545T570 632H566L515 486L366 74H332L182 486L130 632H126Q128 591 129 545T130 460V0H100Z" />
<glyph unicode="N" glyph-name="N" horiz-adv-x="632" d="M100 0V660H134L426 176L502 46H506Q504 94 503 139T502 232V660H532V0H498L206 484L130 614H126Q128 567 129 524T130 434V0H100Z" />
<glyph unicode="O" glyph-name="O" horiz-adv-x="648" d="M324 -12Q265 -12 216 12T132 82T76 190T56 332Q56 410 76 473T131 580T216 648T324 672Q382 672 431 648T516 580T572 473T592 332Q592 254 572 191T517 82T432 13T324 -12ZM324 18Q376 18 419 40T493
104T541 203T558 332Q558 403 541 460T494 558T420 620T324 642Q271 642 228 621T155 559T107 461T90 332Q90 261 107 203T154 104T228 41T324 18Z" />
<glyph unicode="P" glyph-name="P" horiz-adv-x="542" d="M100 0V660H258Q314 660 358 651T432 620T478 564T494 480Q494 385 434 339T262 292H132V0H100ZM132 320H250Q357 320 408 357T460 480Q460 567 407 599T246 632H132V320Z" />
<glyph unicode="Q" glyph-name="Q" horiz-adv-x="648" d="M324 16Q376 16 419 38T493 102T541 202T558 332Q558 403 541 460T494 558T420 620T324 642Q271 642 228 621T155 559T107 461T90 332Q90 261 107 203T154 103T228 39T324 16ZM514 -152Q433 -152 380 -112T304
-11Q250 -7 205 19T126 90T75 196T56 332Q56 410 76 473T131 580T216 648T324 672Q382 672 431 648T516 580T572 473T592 332Q592 257 574 195T522 89T442 18T341 -11Q363 -63 407 -91T516 -120Q539 -120 554 -118T582 -112L590 -142Q578 -145 558 -148T514 -152Z"
/>
<glyph unicode="R" glyph-name="R" horiz-adv-x="534" d="M100 0V660H282Q331 660 370 651T436 621T479 568T494 490Q494 411 447 367T316 314L504 0H466L280 312H132V0H100ZM132 340H270Q362 340 411 376T460 490Q460 568 411 600T270 632H132V340Z" />
<glyph unicode="S" glyph-name="S" horiz-adv-x="516" d="M268 -12Q194 -12 140 16T48 88L70 110Q106 68 157 43T268 18Q308 18 340 28T394 57T429 102T442 160Q442 193 432 215T406 254T367 283T320 306L218 352Q197 361 174 374T130 405T97 450T84 514Q84 549
98 578T137 628T196 660T270 672Q330 672 375 649T450 594L430 572Q401 604 361 623T270 642Q201 642 159 608T116 516Q116 485 127 464T156 427T194 401T232 382L334 336Q361 324 386 310T431 275T462 228T474 162Q474 124 459 93T417 38T352 1T268 -12Z" />
<glyph unicode="T" glyph-name="T" horiz-adv-x="520" d="M244 0V632H30V660H490V632H276V0H244Z" />
<glyph unicode="U" glyph-name="U" horiz-adv-x="630" d="M314 -12Q274 -12 236 -1T167 40T117 119T98 246V660H130V254Q130 186 145 141T185 68T244 30T314 18Q351 18 385 29T445 68T486 140T502 254V660H532V246Q532 169 513 120T463 41T393 0T314 -12Z" />
<glyph unicode="V" glyph-name="V" horiz-adv-x="482" d="M226 0L6 660H40L168 264Q178 233 186 206T203 153T220 99T240 41H244Q254 71 263 98T280 152T297 206T316 264L444 660H476L258 0H226Z" />
<glyph unicode="W" glyph-name="W" horiz-adv-x="764" d="M184 0L30 660H64L152 260L200 44H204Q216 98 229 152T256 260L364 660H400L508 260L562 44H566Q578 98 589 152T612 260L700 660H732L580 0H548L420 474Q411 513 402 548T384 622H380Q371 583 361 548T342
474L216 0H184Z" />
<glyph unicode="X" glyph-name="X" horiz-adv-x="470" d="M18 0L218 342L32 660H66L182 456Q196 433 207 414T236 368H240Q255 395 265 414T290 456L406 660H438L252 340L452 0H418L296 212Q282 236 267 261T234 316H230Q213 286 200 261T172 212L50 0H18Z" />
<glyph unicode="Y" glyph-name="Y" horiz-adv-x="436" d="M202 0V272L4 660H38L144 446Q162 410 179 375T216 304H220Q240 340 258 375T294 446L400 660H432L234 272V0H202Z" />
<glyph unicode="Z" glyph-name="Z" horiz-adv-x="538" d="M52 0V18L444 632H86V660H484V642L92 28H488V0H52Z" />
<glyph unicode="[" glyph-name="bracketleft" horiz-adv-x="270" d="M100 -152V708H252V686H124V-130H252V-152H100Z" />
<glyph unicode="\" glyph-name="backslash" horiz-adv-x="360" d="M322 -160L2 710H32L352 -160H322Z" />
<glyph unicode="]" glyph-name="bracketright" horiz-adv-x="270" d="M18 -152V-130H146V686H18V708H170V-152H18Z" />
<glyph unicode="^" glyph-name="asciicircum" horiz-adv-x="472" d="M68 292L218 670H254L404 292H372L290 506L238 638H234L182 506L100 292H68Z" />
<glyph unicode="_" glyph-name="underscore" horiz-adv-x="500" d="M12 -114V-82H488V-114H12Z" />
<glyph unicode="`" glyph-name="grave" horiz-adv-x="532" d="M300 574L162 724L186 744L318 590L300 574Z" />
<glyph unicode="a" glyph-name="a" horiz-adv-x="486" d="M198 -12Q170 -12 145 -5T101 18T71 58T60 117Q60 197 136 238T374 298Q375 327 371 356T353 409T317 447T256 462Q230 462 207 457T164 442T128 423T100 404L84 428Q95 436 112 447T152 467T202 483T258
490Q300 490 328 476T373 436T397 379T404 310V0H378L374 64H372Q334 34 290 11T198 -12ZM200 16Q244 16 285 36T374 98V272Q295 263 241 250T154 217T107 174T92 118Q92 90 100 71T124 39T158 22T200 16Z" />
<glyph unicode="b" glyph-name="b" horiz-adv-x="538" d="M274 -12Q239 -12 201 4T128 48H126L122 0H96V722H126V508L124 412Q162 444 205 467T294 490Q391 490 438 424T486 246Q486 185 469 137T423 56T356 6T274 -12ZM276 16Q315 16 347 33T404 80T441 153T454
246Q454 292 446 331T418 400T367 445T292 462Q254 462 213 441T126 378V82Q168 46 207 31T276 16Z" />
<glyph unicode="c" glyph-name="c" horiz-adv-x="446" d="M268 -12Q222 -12 183 5T116 54T71 132T54 238Q54 298 71 345T118 424T186 473T268 490Q318 490 351 472T408 430L388 408Q364 431 335 446T268 462Q230 462 197 446T139 400T100 329T86 238Q86 188 99
148T136 78T193 32T268 16Q309 16 342 33T402 74L420 52Q390 25 353 7T268 -12Z" />
<glyph unicode="d" glyph-name="d" horiz-adv-x="540" d="M252 -12Q161 -12 108 52T54 238Q54 296 71 342T117 422T185 472T268 490Q312 490 345 475T416 430L414 520V722H444V0H418L414 64H412Q382 34 342 11T252 -12ZM254 16Q296 16 334 37T414 100V396Q373
432 339 447T266 462Q228 462 195 445T138 397T100 325T86 238Q86 188 97 148T129 78T182 32T254 16Z" />
<glyph unicode="e" glyph-name="e" horiz-adv-x="478" d="M272 -12Q227 -12 188 5T118 54T71 133T54 238Q54 296 71 343T117 422T183 472T260 490Q343 490 391 434T440 270Q440 262 440 255T438 238H86Q86 190 99 150T137 79T196 33T274 16Q315 16 347 28T406
60L420 34Q393 17 360 3T272 -12ZM86 266H410Q410 366 369 414T260 462Q228 462 198 449T145 410T106 348T86 266Z" />
<glyph unicode="f" glyph-name="f" horiz-adv-x="252" d="M100 0V450H34V474L100 478V596Q100 667 129 700T210 734Q241 734 276 718L266 692Q251 700 237 703T208 706Q167 706 149 676T130 592V478H244V450H130V0H100Z" />
<glyph unicode="g" glyph-name="g" horiz-adv-x="480" d="M250 -234Q158 -234 106 -197T54 -100Q54 -68 73 -37T126 18V22Q108 33 96 52T84 98Q84 131 102 153T136 186V190Q113 210 95 244T76 322Q76 358 88 388T123 441T175 477T240 490Q260 490 275 487T302
478H462V450H346Q372 429 388 396T404 322Q404 286 392 255T357 201T304 165T240 152Q219 152 197 157T158 174Q141 160 129 143T116 100Q116 86 120 74T135 53T164 39T210 34H316Q396 34 433 8T470 -74Q470 -104 455 -133T411 -184T341 -220T250 -234ZM240 180Q266
180 290 190T332 219T361 264T372 322Q372 354 362 380T333 424T291 452T240 462Q213 462 189 452T147 424T119 380T108 322Q108 290 119 264T148 220T190 191T240 180ZM252 -206Q295 -206 329 -195T388 -165T425 -124T438 -76Q438 -34 409 -16T322 2H212Q207 2
191 3T154 10Q118 -14 102 -42T86 -98Q86 -146 129 -176T252 -206Z" />
<glyph unicode="h" glyph-name="h" horiz-adv-x="522" d="M96 0V722H126V400Q165 439 204 464T294 490Q368 490 403 446T438 308V0H408V304Q408 384 381 423T292 462Q247 462 210 438T126 366V0H96Z" />
<glyph unicode="i" glyph-name="i" horiz-adv-x="222" d="M96 0V478H126V0H96ZM112 600Q98 600 88 609T78 634Q78 651 88 659T112 668Q126 668 136 660T146 634Q146 619 136 610T112 600Z" />
<glyph unicode="j" glyph-name="j" horiz-adv-x="222" d="M28 -234Q13 -234 -3 -231T-30 -222L-22 -196Q-13 -199 1 -202T30 -206Q51 -206 64 -198T84 -176T93 -141T96 -98V478H126V-102Q126 -171 102 -202T28 -234ZM112 600Q98 600 88 609T78 634Q78 651 88 659T112
668Q126 668 136 660T146 634Q146 619 136 610T112 600Z" />
<glyph unicode="k" glyph-name="k" horiz-adv-x="452" d="M96 0V722H126V174H128L376 478H412L258 290L440 0H406L240 266L126 132V0H96Z" />
<glyph unicode="l" glyph-name="l" horiz-adv-x="230" d="M144 -12Q121 -12 109 2T96 52V722H126V46Q126 16 146 16Q149 16 152 16T164 18L170 -8Q164 -10 159 -11T144 -12Z" />
<glyph unicode="m" glyph-name="m" horiz-adv-x="806" d="M96 0V478H122L126 402H128Q161 440 201 465T280 490Q339 490 369 463T412 390Q454 437 494 463T576 490Q647 490 682 446T718 308V0H688V304Q688 384 661 423T574 462Q538 462 501 438T422 366V0H392V304Q392
384 365 423T278 462Q210 462 126 366V0H96Z" />
<glyph unicode="n" glyph-name="n" horiz-adv-x="526" d="M96 0V478H122L126 402H128Q166 440 205 465T294 490Q368 490 403 446T438 308V0H408V304Q408 384 381 423T292 462Q247 462 210 438T126 366V0H96Z" />
<glyph unicode="o" glyph-name="o" horiz-adv-x="532" d="M266 -12Q223 -12 185 5T117 54T71 132T54 238Q54 298 71 345T117 424T184 473T266 490Q309 490 347 473T415 424T461 345T478 238Q478 179 461 133T415 54T348 5T266 -12ZM266 16Q304 16 337 32T394 77T432
147T446 238Q446 287 432 328T394 399T337 445T266 462Q228 462 195 446T138 400T100 329T86 238Q86 188 100 148T138 78T195 32T266 16Z" />
<glyph unicode="p" glyph-name="p" horiz-adv-x="540" d="M96 -222V478H122L126 416H128Q164 445 206 467T294 490Q391 490 438 424T486 246Q486 185 469 137T423 56T356 6T274 -12Q239 -12 202 3T126 48V-222H96ZM276 16Q315 16 347 33T404 80T441 153T454 246Q454
292 446 331T418 400T367 445T292 462Q254 462 214 441T126 378V82Q170 46 208 31T276 16Z" />
<glyph unicode="q" glyph-name="q" horiz-adv-x="540" d="M414 -222V-32L416 66Q383 34 343 11T252 -12Q161 -12 108 52T54 238Q54 296 71 342T117 422T185 472T268 490Q312 490 344 475T412 434H414L418 478H444V-222H414ZM254 16Q296 16 334 37T414 100V396Q373
432 339 447T266 462Q228 462 195 445T138 397T100 325T86 238Q86 188 97 148T129 78T182 32T254 16Z" />
<glyph unicode="r" glyph-name="r" horiz-adv-x="306" d="M96 0V478H122L126 388H128Q152 432 186 461T264 490Q276 490 287 488T310 480L302 452Q290 457 282 458T260 460Q227 460 191 432T126 332V0H96Z" />
<glyph unicode="s" glyph-name="s" horiz-adv-x="400" d="M208 -12Q154 -12 110 7T34 54L54 78Q84 52 120 34T210 16Q240 16 263 24T301 47T324 79T332 118Q332 142 321 159T293 190T255 213T212 230Q184 240 157 251T107 277T70 313T56 366Q56 391 65 413T94
453T141 480T206 490Q242 490 277 477T338 442L320 418Q296 436 269 449T204 462Q174 462 152 454T116 433T95 403T88 368Q88 346 98 331T124 304T161 283T204 266Q232 255 261 244T312 218T349 179T364 120Q364 94 354 70T324 28T275 -1T208 -12Z" />
<glyph unicode="t" glyph-name="t" horiz-adv-x="302" d="M218 -12Q185 -12 164 -2T129 26T111 69T106 126V450H30V474L106 478L110 618H136V478H278V450H136V122Q136 99 139 80T152 46T177 24T220 16Q234 16 251 21T282 32L292 6Q271 -2 251 -7T218 -12Z" />
<glyph unicode="u" glyph-name="u" horiz-adv-x="524" d="M232 -12Q158 -12 123 32T88 170V478H118V174Q118 94 145 55T234 16Q279 16 316 41T398 120V478H428V0H402L398 82H396Q360 40 321 14T232 -12Z" />
<glyph unicode="v" glyph-name="v" horiz-adv-x="422" d="M194 0L12 478H46L160 168Q172 133 185 99T210 32H214Q226 64 239 98T264 168L378 478H410L230 0H194Z" />
<glyph unicode="w" glyph-name="w" horiz-adv-x="672" d="M168 0L24 478H58L150 156Q159 123 167 93T184 30H188Q197 62 206 92T224 156L316 478H358L450 156Q459 123 468 93T486 30H490Q499 62 508 92T526 156L616 478H648L508 0H466L376 312Q365 347 357 380T338
448H334Q325 413 316 379T294 310L206 0H168Z" />
<glyph unicode="x" glyph-name="x" horiz-adv-x="392" d="M14 0L178 250L28 478H62L144 350Q156 330 169 311T196 272H200Q214 292 226 311T252 350L332 478H364L214 248L378 0H344L254 138Q240 161 226 183T196 226H192Q177 205 163 183T134 138L46 0H14Z" />
<glyph unicode="y" glyph-name="y" horiz-adv-x="424" d="M66 -222Q40 -222 20 -212L28 -184Q36 -187 46 -189T68 -192Q113 -192 144 -154T196 -56L210 -12L12 478H46L168 164Q180 134 194 98T222 30H226Q238 62 249 98T272 164L380 478H412L220 -68Q211 -96 198
-123T165 -173T122 -208T66 -222Z" />
<glyph unicode="z" glyph-name="z" horiz-adv-x="396" d="M26 0V16L320 450H58V478H360V462L66 28H370V0H26Z" />
<glyph unicode="{" glyph-name="braceleft" horiz-adv-x="270" d="M222 -152Q195 -152 175 -147T141 -127T121 -88T114 -26Q114 30 118 80T122 184Q122 200 119 214T106 240T79 259T36 266V290Q62 290 79 297T105 315T118 340T122 370Q122 424 118 475T114 582Q114
619 120 643T140 682T174 702T222 708H252V686H220Q172 686 156 659T140 578Q140 528 143 483T146 382Q146 340 137 315T98 280V276Q127 267 136 241T146 174Q146 118 143 73T140 -22Q140 -76 156 -103T220 -130H252V-152H222Z" />
<glyph unicode="|" glyph-name="bar" horiz-adv-x="220" d="M96 -250V750H124V-250H96Z" />
<glyph unicode="}" glyph-name="braceright" horiz-adv-x="270" d="M18 -152V-130H50Q98 -130 114 -103T130 -22Q130 28 127 73T124 174Q124 215 133 241T172 276V280Q143 289 134 314T124 382Q124 438 127 483T130 578Q130 632 114 659T50 686H18V708H48Q75 708
95 703T128 683T149 644T156 582Q156 526 152 475T148 370Q148 355 151 341T164 315T191 297T234 290V266Q208 266 191 259T165 241T152 215T148 184Q148 131 152 81T156 -26Q156 -64 149 -88T129 -126T95 -146T48 -152H18Z" />
<glyph unicode="~" glyph-name="asciitilde" horiz-adv-x="472" d="M326 270Q297 270 274 284T229 316T187 347T144 362Q121 362 102 348T64 298L42 310Q62 351 89 370T146 390Q174 390 198 376T243 344T285 313T328 298Q351 298 370 312T408 362L430 348Q410
309 383 290T326 270Z" />
<glyph unicode="&#xa0;" glyph-name="uni00A0" horiz-adv-x="198" />
<glyph unicode="&#xa1;" glyph-name="exclamdown" horiz-adv-x="248" d="M108 -192V-130L112 306H136L140 -130V-192H108ZM124 412Q110 412 99 422T88 452Q88 470 99 480T124 490Q138 490 149 480T160 452Q160 432 149 422T124 412Z" />
<glyph unicode="&#xa2;" glyph-name="cent" horiz-adv-x="472" d="M94 312Q94 270 105 236T137 175T187 133T252 113V510Q218 506 189 490T139 448T106 388T94 312ZM252 -26V85Q211 89 176 105T116 151T76 220T62 312Q62 364 77 404T118 473T178 518T252 539V652H280V540Q328
539 360 521T416 480L398 460Q374 483 345 497T280 512V112Q319 113 352 129T410 168L428 148Q398 121 361 103T280 84V-26H252Z" />
<glyph unicode="&#xa3;" glyph-name="sterling" horiz-adv-x="472" d="M58 0V18Q115 51 139 105T164 218Q164 238 162 257T154 296H54V322L120 324H146Q135 365 124 404T112 486Q112 563 155 607T276 652Q327 652 361 631T416 582L394 562Q373 588 345 606T274
624Q242 624 218 613T177 584T152 541T144 488Q144 445 156 406T179 324H346V296H185Q194 260 194 218Q194 152 174 110T118 32V28H418V0H58Z" />
<glyph unicode="&#xa4;" glyph-name="currency" horiz-adv-x="472" d="M52 118L32 140L98 208Q80 232 70 262T60 328Q60 365 70 396T98 451L32 520L52 542L118 473Q141 496 171 508T236 520Q269 520 299 508T354 473L420 542L440 520L373 451Q391 427 401 396T412
328Q412 293 402 263T374 208L440 140L420 118L354 186Q331 163 300 151T236 138Q167 138 117 186L52 118ZM236 166Q265 166 291 178T337 211T368 262T380 328Q380 364 369 394T338 446T292 480T236 492Q207 492 181 480T135 446T104 394T92 328Q92 292 103 262T134
211T180 178T236 166Z" />
<glyph unicode="&#xa5;" glyph-name="yen" horiz-adv-x="472" d="M220 0V168H52V196H220V270H52V298H208L32 640H66L166 438Q183 405 199 372T234 300H238Q258 338 274 371T308 438L408 640H440L262 298H420V270H250V196H420V168H250V0H220Z" />
<glyph unicode="&#xa6;" glyph-name="brokenbar" horiz-adv-x="220" d="M96 274V750H124V274H96ZM96 -250V222H124V-250H96Z" />
<glyph unicode="&#xa7;" glyph-name="section" horiz-adv-x="472" d="M82 358Q82 316 105 291T163 247T237 214T308 176Q327 185 342 194T368 216T384 244T390 282Q390 325 367 351T309 396T235 431T165 468Q128 448 105 424T82 358ZM232 -48Q181 -48 143 -31T76
12L98 34Q124 10 154 -5T232 -20Q280 -20 309 7T338 70Q338 106 317 128T264 167T195 198T126 233T73 281T52 356Q52 405 78 435T142 487Q126 502 117 522T108 568Q108 587 115 607T139 643T179 670T238 680Q277 680 311 666T372 628L354 606Q330 626 304 639T238
652Q211 652 192 645T161 626T144 600T138 570Q138 535 159 514T211 476T279 445T347 410T399 360T420 284Q420 233 396 205T333 157Q349 141 358 121T368 72Q368 46 357 24T326 -14T283 -39T232 -48Z" />
<glyph unicode="&#xa8;" glyph-name="dieresis" horiz-adv-x="532" d="M180 602Q166 602 157 611T148 634Q148 648 157 657T180 666Q194 666 203 657T212 634Q212 620 203 611T180 602ZM352 602Q338 602 329 611T320 634Q320 648 329 657T352 666Q366 666 375
657T384 634Q384 620 375 611T352 602Z" />
<glyph unicode="&#xa9;" glyph-name="copyright" horiz-adv-x="740" d="M370 -12Q305 -12 248 12T147 79T78 184T52 322Q52 397 77 458T146 562T247 628T370 652Q434 652 492 629T593 562T662 458T688 322Q688 246 663 185T594 80T492 12T370 -12ZM370 14Q428
14 480 36T571 98T634 196T658 322Q658 390 635 446T572 542T480 604T370 626Q312 626 260 604T169 542T106 446T82 322Q82 253 105 196T168 99T260 36T370 14ZM374 124Q339 124 308 137T254 175T216 238T202 322Q202 365 216 399T255 458T312 495T380 508Q419
508 446 493T498 454L480 432Q456 455 433 466T378 478Q347 478 321 467T276 436T247 386T236 322Q236 244 274 199T376 154Q414 154 443 169T496 206L512 184Q485 159 454 142T374 124Z" />
<glyph unicode="&#xaa;" glyph-name="ordfeminine" horiz-adv-x="334" d="M140 402Q98 402 71 425T44 492Q44 544 94 571T252 610Q252 630 249 648T238 679T216 700T180 708Q148 708 118 695T70 670L58 692Q76 704 109 719T182 734Q239 734 259 700T280 612V410H258L252
450H248Q227 432 200 417T140 402ZM146 428Q170 428 196 440T252 480V588Q153 577 114 554T74 494Q74 459 93 444T146 428Z" />
<glyph unicode="&#xab;" glyph-name="guillemotleft" horiz-adv-x="388" d="M180 74L42 238V266L180 430L200 412L76 252L200 90L180 74ZM314 74L176 238V266L314 430L334 412L210 252L334 90L314 74Z" />
<glyph unicode="&#xac;" glyph-name="logicalnot" horiz-adv-x="472" d="M406 112V316H34V344H438V112H406Z" />
<glyph unicode="&#xad;" glyph-name="uni00AD" horiz-adv-x="294" d="M40 234V264H256V234H40Z" />
<glyph unicode="&#xae;" glyph-name="registered" horiz-adv-x="392" d="M196 326Q159 326 127 339T70 378T31 439T16 518Q16 561 30 597T69 658T126 698T196 712Q233 712 265 698T322 659T361 597T376 518Q376 474 362 439T323 379T266 340T196 326ZM196 352Q227
352 255 364T303 399T336 451T348 518Q348 554 336 584T304 637T255 673T196 686Q164 686 137 673T89 638T56 585T44 518Q44 482 56 452T88 399T136 365T196 352ZM130 418V626H196Q210 626 224 623T248 613T265 593T272 562Q272 542 261 527T232 506L282 418H248L208
496H158V418H130ZM158 522H188Q212 522 227 530T242 560Q242 578 232 589T192 600H158V522Z" />
<glyph unicode="&#xaf;" glyph-name="overscore" horiz-adv-x="532" d="M146 608V636H386V608H146Z" />
<glyph unicode="&#xb0;" glyph-name="degree" horiz-adv-x="304" d="M152 454Q131 454 111 461T76 484T52 520T42 568Q42 596 51 617T76 654T111 676T152 684Q173 684 193 677T228 654T252 618T262 568Q262 541 253 520T228 484T193 462T152 454ZM152 480Q188
480 211 505T234 568Q234 607 211 632T152 658Q116 658 93 633T70 568Q70 530 93 505T152 480Z" />
<glyph unicode="&#xb1;" glyph-name="plusminus" horiz-adv-x="472" d="M220 102V312H34V340H220V548H252V340H438V312H252V102H220ZM34 0V28H438V0H34Z" />
<glyph unicode="&#xb2;" glyph-name="two.sups" horiz-adv-x="360" d="M58 410V430Q110 479 147 515T208 582T243 637T254 688Q254 733 230 759T164 786Q135 786 111 767T70 722L50 740Q67 769 98 790T166 812Q219 812 251 782T284 690Q284 658 271 629T235 570T179
508T106 436H308V410H58Z" />
<glyph unicode="&#xb3;" glyph-name="three.sups" horiz-adv-x="360" d="M176 398Q131 398 97 420T42 472L66 490Q84 461 113 443T178 424Q217 424 245 447T274 512Q274 553 235 574T130 596V620Q192 620 225 646T258 708Q258 743 235 764T170 786Q146 786 122
771T78 732L58 750Q78 776 107 794T172 812Q220 812 254 785T288 710Q288 672 266 647T210 610Q246 604 275 579T304 512Q304 458 267 428T176 398Z" />
<glyph unicode="&#xb4;" glyph-name="acute" horiz-adv-x="532" d="M232 574L214 590L346 744L370 724L232 574Z" />
<glyph unicode="&#xb5;" glyph-name="uni00B5" horiz-adv-x="536" d="M96 -180V478H126V174Q126 100 152 58T238 16Q257 16 276 19T316 35T358 71T402 134V478H432Q431 369 431 265T430 52Q430 34 438 25T458 16Q465 16 471 17T486 22L492 -4Q485 -7 476 -9T456
-12Q423 -12 412 12T402 92H400Q367 38 327 13T242 -12Q203 -12 173 0T122 54Q122 11 122 -19T122 -75T123 -125T126 -180H96Z" />
<glyph unicode="&#xb6;" glyph-name="paragraph" horiz-adv-x="498" d="M370 -80V660H402V-80H370ZM290 250Q234 250 189 261T111 296T60 359T42 454Q42 509 59 548T106 612T178 648T272 660H316V250H290Z" />
<glyph unicode="&#xb7;" glyph-name="middot" horiz-adv-x="208" d="M104 284Q90 284 79 294T68 322Q68 342 79 352T104 362Q118 362 129 352T140 322Q140 304 129 294T104 284Z" />
<glyph unicode="&#xb8;" glyph-name="cedilla" horiz-adv-x="532" d="M202 -216L196 -190Q262 -185 286 -172T310 -136Q310 -113 292 -102T232 -84L272 2H300L270 -66Q302 -74 321 -89T340 -134Q340 -172 305 -191T202 -216Z" />
<glyph unicode="&#xb9;" glyph-name="one.sups" horiz-adv-x="360" d="M178 410V740H96V762Q148 773 180 800H206V410H178Z" />
<glyph unicode="&#xba;" glyph-name="ordmasculine" horiz-adv-x="358" d="M178 402Q148 402 122 413T76 446T45 498T34 568Q34 608 45 639T75 691T121 723T178 734Q208 734 234 723T279 691T310 639T322 568Q322 529 311 498T280 446T234 414T178 402ZM178 428Q229
428 260 467T292 568Q292 631 261 669T178 708Q127 708 96 670T64 568Q64 506 95 467T178 428Z" />
<glyph unicode="&#xbb;" glyph-name="guillemotright" horiz-adv-x="388" d="M74 74L54 90L178 252L54 412L74 430L212 266V238L74 74ZM208 74L188 90L312 252L188 412L208 430L346 266V238L208 74Z" />
<glyph unicode="&#xbc;" glyph-name="onequarter" horiz-adv-x="758" d="M159 270V600H77V622Q129 633 161 660H187V270H159ZM176 -12L546 672H578L208 -12H176ZM622 0V118H446V134L628 390H650V144H708V118H650V0H622ZM486 144H622V238L626 340H622L564 256L486 144Z" />
<glyph unicode="&#xbd;" glyph-name="onehalf" horiz-adv-x="778" d="M159 270V600H77V622Q129 633 161 660H187V270H159ZM152 -12L522 672H554L184 -12H152ZM476 0V20Q528 69 565 105T626 172T661 227T672 278Q672 323 648 349T582 376Q553 376 529 357T488 312L468
330Q485 359 516 380T584 402Q637 402 669 372T702 280Q702 248 689 219T653 160T597 98T524 26H726V0H476Z" />
<glyph unicode="&#xbe;" glyph-name="threequarters" horiz-adv-x="778" d="M176 258Q131 258 97 280T42 332L66 350Q84 321 113 303T178 284Q217 284 245 307T274 372Q274 413 235 434T130 456V480Q192 480 225 506T258 568Q258 603 235 624T170 646Q146 646
122 631T78 592L58 610Q78 636 107 654T172 672Q220 672 254 645T288 570Q288 532 266 507T210 470Q246 464 275 439T304 372Q304 318 267 288T176 258ZM226 -12L596 672H628L258 -12H226ZM642 0V118H466V134L648 390H670V144H728V118H670V0H642ZM506 144H642V238L646
340H642L584 256L506 144Z" />
<glyph unicode="&#xbf;" glyph-name="questiondown" horiz-adv-x="394" d="M202 -204Q166 -204 138 -192T91 -160T62 -112T52 -54Q52 -19 64 10T95 66T134 119T172 173T198 234T202 306H230Q235 264 227 230T202 167T166 112T127 61T97 8T84 -52Q84 -76 91 -98T112
-138T149 -165T204 -176Q242 -176 277 -159T338 -110L358 -128Q329 -160 291 -182T202 -204ZM212 412Q198 412 187 422T176 452Q176 470 187 480T212 490Q226 490 237 480T248 452Q248 432 237 422T212 412Z" />
<glyph unicode="&#xc0;" glyph-name="Agrave" horiz-adv-x="520" d="M182 396L135 264H384L338 396Q317 456 299 510T262 626H258Q240 564 222 510T182 396ZM10 0L246 660H274L510 0H476L394 236H125L42 0H10ZM282 710L156 822L178 846L296 726L282 710Z" />
<glyph unicode="&#xc1;" glyph-name="Aacute" horiz-adv-x="520" d="M182 396L135 264H384L338 396Q317 456 299 510T262 626H258Q240 564 222 510T182 396ZM10 0L246 660H274L510 0H476L394 236H125L42 0H10ZM238 710L224 726L342 846L364 822L238 710Z" />
<glyph unicode="&#xc2;" glyph-name="Acircumflex" horiz-adv-x="520" d="M182 396L135 264H384L338 396Q317 456 299 510T262 626H258Q240 564 222 510T182 396ZM10 0L246 660H274L510 0H476L394 236H125L42 0H10ZM130 726L246 840H274L390 726L376 710L262 810H258L144
710L130 726Z" />
<glyph unicode="&#xc3;" glyph-name="Atilde" horiz-adv-x="520" d="M182 396L135 264H384L338 396Q317 456 299 510T262 626H258Q240 564 222 510T182 396ZM10 0L246 660H274L510 0H476L394 236H125L42 0H10ZM338 722Q309 722 289 735T253 763T220 791T182 804Q159
804 143 782T124 724L100 726Q102 769 122 800T182 832Q211 832 231 819T267 791T300 763T338 750Q361 750 376 772T396 830L420 828Q418 785 398 754T338 722Z" />
<glyph unicode="&#xc4;" glyph-name="Adieresis" horiz-adv-x="520" d="M182 396L135 264H384L338 396Q317 456 299 510T262 626H258Q240 564 222 510T182 396ZM10 0L246 660H274L510 0H476L394 236H125L42 0H10ZM164 728Q150 728 141 736T132 760Q132 775 141
783T164 792Q178 792 187 784T196 760Q196 745 187 737T164 728ZM356 728Q342 728 333 736T324 760Q324 775 333 783T356 792Q370 792 379 784T388 760Q388 745 379 737T356 728Z" />
<glyph unicode="&#xc5;" glyph-name="Aring" horiz-adv-x="520" d="M182 396L135 264H384L338 396Q317 456 299 510T262 626H258Q240 564 222 510T182 396ZM10 0L246 660H274L510 0H476L394 236H125L42 0H10ZM260 700Q225 700 201 723T176 784Q176 822 200 845T260
868Q294 868 319 845T344 784Q344 746 319 723T260 700ZM260 722Q283 722 300 737T318 784Q318 813 301 829T260 846Q235 846 218 830T200 784Q200 753 217 738T260 722Z" />
<glyph unicode="&#xc6;" glyph-name="AE" horiz-adv-x="804" d="M280 392L203 254H414V630H410Q378 573 346 514T280 392ZM26 0L398 660H748V632H446V366H696V338H446V28H758V0H414V226H187L60 0H26Z" />
<glyph unicode="&#xc7;" glyph-name="Ccedilla" horiz-adv-x="562" d="M328 -12Q267 -12 217 12T131 82T76 190T56 332Q56 410 76 473T132 580T219 648T334 672Q391 672 433 648T502 594L482 572Q455 604 418 623T334 642Q277 642 232 621T155 559T107 461T90
332Q90 261 106 203T154 104T230 41T330 18Q383 18 423 39T502 102L522 82Q484 38 439 13T328 -12ZM264 -216L258 -190Q324 -185 348 -172T372 -136Q372 -113 354 -102T294 -84L334 2H362L332 -66Q364 -74 383 -89T402 -134Q402 -172 367 -191T264 -216Z" />
<glyph unicode="&#xc8;" glyph-name="Egrave" horiz-adv-x="510" d="M100 0V660H454V632H132V366H402V338H132V28H464V0H100ZM303 710L177 822L199 846L317 726L303 710Z" />
<glyph unicode="&#xc9;" glyph-name="Eacute" horiz-adv-x="510" d="M100 0V660H454V632H132V366H402V338H132V28H464V0H100ZM259 710L245 726L363 846L385 822L259 710Z" />
<glyph unicode="&#xca;" glyph-name="Ecircumflex" horiz-adv-x="510" d="M100 0V660H454V632H132V366H402V338H132V28H464V0H100ZM151 726L267 840H295L411 726L397 710L283 810H279L165 710L151 726Z" />
<glyph unicode="&#xcb;" glyph-name="Edieresis" horiz-adv-x="510" d="M100 0V660H454V632H132V366H402V338H132V28H464V0H100ZM185 728Q171 728 162 736T153 760Q153 775 162 783T185 792Q199 792 208 784T217 760Q217 745 208 737T185 728ZM377 728Q363 728
354 736T345 760Q345 775 354 783T377 792Q391 792 400 784T409 760Q409 745 400 737T377 728Z" />
<glyph unicode="&#xcc;" glyph-name="Igrave" horiz-adv-x="232" d="M100 0V660H132V0H100ZM138 710L12 822L34 846L152 726L138 710Z" />
<glyph unicode="&#xcd;" glyph-name="Iacute" horiz-adv-x="232" d="M100 0V660H132V0H100ZM94 710L80 726L198 846L220 822L94 710Z" />
<glyph unicode="&#xce;" glyph-name="Icircumflex" horiz-adv-x="232" d="M100 0V660H132V0H100ZM-14 726L102 840H130L246 726L232 710L118 810H114L0 710L-14 726Z" />
<glyph unicode="&#xcf;" glyph-name="Idieresis" horiz-adv-x="232" d="M100 0V660H132V0H100ZM20 728Q6 728 -3 736T-12 760Q-12 775 -3 783T20 792Q34 792 43 784T52 760Q52 745 43 737T20 728ZM212 728Q198 728 189 736T180 760Q180 775 189 783T212 792Q226
792 235 784T244 760Q244 745 235 737T212 728Z" />
<glyph unicode="&#xd0;" glyph-name="Eth" horiz-adv-x="620" d="M38 336V362L120 364V660H268Q344 660 400 637T492 570T546 466T564 332Q564 258 547 197T493 93T400 25T268 0H120V336H38ZM152 28H264Q334 28 384 51T467 114T515 211T530 332Q530 397 515 452T468
547T385 609T264 632H152V364H320V336H152V28Z" />
<glyph unicode="&#xd1;" glyph-name="Ntilde" horiz-adv-x="632" d="M100 0V660H134L426 176L502 46H506Q504 94 503 139T502 232V660H532V0H498L206 484L130 614H126Q128 567 129 524T130 434V0H100ZM399 722Q370 722 350 735T314 763T281 791T243 804Q220 804
204 782T185 724L161 726Q163 769 183 800T243 832Q272 832 292 819T328 791T361 763T399 750Q422 750 437 772T457 830L481 828Q479 785 459 754T399 722Z" />
<glyph unicode="&#xd2;" glyph-name="Ograve" horiz-adv-x="648" d="M324 -12Q265 -12 216 12T132 82T76 190T56 332Q56 410 76 473T131 580T216 648T324 672Q382 672 431 648T516 580T572 473T592 332Q592 254 572 191T517 82T432 13T324 -12ZM324 18Q376 18
419 40T493 104T541 203T558 332Q558 403 541 460T494 558T420 620T324 642Q271 642 228 621T155 559T107 461T90 332Q90 261 107 203T154 104T228 41T324 18ZM346 710L220 822L242 846L360 726L346 710Z" />
<glyph unicode="&#xd3;" glyph-name="Oacute" horiz-adv-x="648" d="M324 -12Q265 -12 216 12T132 82T76 190T56 332Q56 410 76 473T131 580T216 648T324 672Q382 672 431 648T516 580T572 473T592 332Q592 254 572 191T517 82T432 13T324 -12ZM324 18Q376 18
419 40T493 104T541 203T558 332Q558 403 541 460T494 558T420 620T324 642Q271 642 228 621T155 559T107 461T90 332Q90 261 107 203T154 104T228 41T324 18ZM302 710L288 726L406 846L428 822L302 710Z" />
<glyph unicode="&#xd4;" glyph-name="Ocircumflex" horiz-adv-x="648" d="M324 -12Q265 -12 216 12T132 82T76 190T56 332Q56 410 76 473T131 580T216 648T324 672Q382 672 431 648T516 580T572 473T592 332Q592 254 572 191T517 82T432 13T324 -12ZM324 18Q376
18 419 40T493 104T541 203T558 332Q558 403 541 460T494 558T420 620T324 642Q271 642 228 621T155 559T107 461T90 332Q90 261 107 203T154 104T228 41T324 18ZM194 726L310 840H338L454 726L440 710L326 810H322L208 710L194 726Z" />
<glyph unicode="&#xd5;" glyph-name="Otilde" horiz-adv-x="648" d="M324 -12Q265 -12 216 12T132 82T76 190T56 332Q56 410 76 473T131 580T216 648T324 672Q382 672 431 648T516 580T572 473T592 332Q592 254 572 191T517 82T432 13T324 -12ZM324 18Q376 18
419 40T493 104T541 203T558 332Q558 403 541 460T494 558T420 620T324 642Q271 642 228 621T155 559T107 461T90 332Q90 261 107 203T154 104T228 41T324 18ZM402 722Q373 722 353 735T317 763T284 791T246 804Q223 804 207 782T188 724L164 726Q166 769 186 800T246
832Q275 832 295 819T331 791T364 763T402 750Q425 750 440 772T460 830L484 828Q482 785 462 754T402 722Z" />
<glyph unicode="&#xd6;" glyph-name="Odieresis" horiz-adv-x="648" d="M324 -12Q265 -12 216 12T132 82T76 190T56 332Q56 410 76 473T131 580T216 648T324 672Q382 672 431 648T516 580T572 473T592 332Q592 254 572 191T517 82T432 13T324 -12ZM324 18Q376
18 419 40T493 104T541 203T558 332Q558 403 541 460T494 558T420 620T324 642Q271 642 228 621T155 559T107 461T90 332Q90 261 107 203T154 104T228 41T324 18ZM228 728Q214 728 205 736T196 760Q196 775 205 783T228 792Q242 792 251 784T260 760Q260 745 251
737T228 728ZM420 728Q406 728 397 736T388 760Q388 775 397 783T420 792Q434 792 443 784T452 760Q452 745 443 737T420 728Z" />
<glyph unicode="&#xd7;" glyph-name="multiply" horiz-adv-x="472" d="M72 138L52 160L216 330L52 500L72 522L236 350L400 522L420 500L256 330L420 160L400 138L236 310L72 138Z" />
<glyph unicode="&#xd8;" glyph-name="Oslash" horiz-adv-x="648" d="M328 -12Q274 -12 228 9T146 69L80 -20L58 -4L128 91Q96 136 78 196T60 332Q60 410 80 473T135 580T220 648T328 672Q380 672 424 653T504 599L564 680L586 664L522 578Q557 533 576 472T596
332Q596 254 576 191T521 82T436 13T328 -12ZM94 332Q94 266 108 213T148 118L485 573Q424 642 328 642Q275 642 232 621T159 559T111 461T94 332ZM328 18Q380 18 423 40T497 104T545 203T562 332Q562 401 547 456T503 551L165 95Q196 58 237 38T328 18Z" />
<glyph unicode="&#xd9;" glyph-name="Ugrave" horiz-adv-x="630" d="M314 -12Q274 -12 236 -1T167 40T117 119T98 246V660H130V254Q130 186 145 141T185 68T244 30T314 18Q351 18 385 29T445 68T486 140T502 254V660H532V246Q532 169 513 120T463 41T393 0T314
-12ZM337 710L211 822L233 846L351 726L337 710Z" />
<glyph unicode="&#xda;" glyph-name="Uacute" horiz-adv-x="630" d="M314 -12Q274 -12 236 -1T167 40T117 119T98 246V660H130V254Q130 186 145 141T185 68T244 30T314 18Q351 18 385 29T445 68T486 140T502 254V660H532V246Q532 169 513 120T463 41T393 0T314
-12ZM293 710L279 726L397 846L419 822L293 710Z" />
<glyph unicode="&#xdb;" glyph-name="Ucircumflex" horiz-adv-x="630" d="M314 -12Q274 -12 236 -1T167 40T117 119T98 246V660H130V254Q130 186 145 141T185 68T244 30T314 18Q351 18 385 29T445 68T486 140T502 254V660H532V246Q532 169 513 120T463 41T393
0T314 -12ZM185 726L301 840H329L445 726L431 710L317 810H313L199 710L185 726Z" />
<glyph unicode="&#xdc;" glyph-name="Udieresis" horiz-adv-x="630" d="M314 -12Q274 -12 236 -1T167 40T117 119T98 246V660H130V254Q130 186 145 141T185 68T244 30T314 18Q351 18 385 29T445 68T486 140T502 254V660H532V246Q532 169 513 120T463 41T393 0T314
-12ZM219 728Q205 728 196 736T187 760Q187 775 196 783T219 792Q233 792 242 784T251 760Q251 745 242 737T219 728ZM411 728Q397 728 388 736T379 760Q379 775 388 783T411 792Q425 792 434 784T443 760Q443 745 434 737T411 728Z" />
<glyph unicode="&#xdd;" glyph-name="Yacute" horiz-adv-x="436" d="M202 0V272L4 660H38L144 446Q162 410 179 375T216 304H220Q240 340 258 375T294 446L400 660H432L234 272V0H202ZM196 710L182 726L300 846L322 822L196 710Z" />
<glyph unicode="&#xde;" glyph-name="Thorn" horiz-adv-x="556" d="M100 0V660H132V540H272Q383 540 443 500T504 360Q504 265 444 219T272 172H132V0H100ZM132 200H260Q367 200 418 237T470 360Q470 447 418 479T260 512H132V200Z" />
<glyph unicode="&#xdf;" glyph-name="germandbls" horiz-adv-x="530" d="M360 -12Q321 -12 287 2T226 40L244 64Q273 40 300 28T360 16Q387 16 407 25T440 49T461 83T468 122Q468 159 452 182T413 221T361 249T310 278T270 316T254 376Q254 413 270 440T305 491T340
540T356 600Q356 645 331 674T256 704Q197 704 162 661T126 524V0H96V538Q96 630 141 681T258 732Q288 732 312 722T353 695T379 654T388 602Q388 563 372 535T337 483T302 434T286 378Q286 348 302 329T341 296T393 269T444 238T484 193T500 124Q500 95 490 70T460
27T416 -1T360 -12Z" />
<glyph unicode="&#xe0;" glyph-name="agrave" horiz-adv-x="486" d="M198 -12Q170 -12 145 -5T101 18T71 58T60 117Q60 197 136 238T374 298Q375 327 371 356T353 409T317 447T256 462Q230 462 207 457T164 442T128 423T100 404L84 428Q95 436 112 447T152 467T202
483T258 490Q300 490 328 476T373 436T397 379T404 310V0H378L374 64H372Q334 34 290 11T198 -12ZM200 16Q244 16 285 36T374 98V272Q295 263 241 250T154 217T107 174T92 118Q92 90 100 71T124 39T158 22T200 16ZM286 574L148 724L172 744L304 590L286 574Z" />
<glyph unicode="&#xe1;" glyph-name="aacute" horiz-adv-x="486" d="M198 -12Q170 -12 145 -5T101 18T71 58T60 117Q60 197 136 238T374 298Q375 327 371 356T353 409T317 447T256 462Q230 462 207 457T164 442T128 423T100 404L84 428Q95 436 112 447T152 467T202
483T258 490Q300 490 328 476T373 436T397 379T404 310V0H378L374 64H372Q334 34 290 11T198 -12ZM200 16Q244 16 285 36T374 98V272Q295 263 241 250T154 217T107 174T92 118Q92 90 100 71T124 39T158 22T200 16ZM218 574L200 590L332 744L356 724L218 574Z" />
<glyph unicode="&#xe2;" glyph-name="acircumflex" horiz-adv-x="486" d="M198 -12Q170 -12 145 -5T101 18T71 58T60 117Q60 197 136 238T374 298Q375 327 371 356T353 409T317 447T256 462Q230 462 207 457T164 442T128 423T100 404L84 428Q95 436 112 447T152
467T202 483T258 490Q300 490 328 476T373 436T397 379T404 310V0H378L374 64H372Q334 34 290 11T198 -12ZM200 16Q244 16 285 36T374 98V272Q295 263 241 250T154 217T107 174T92 118Q92 90 100 71T124 39T158 22T200 16ZM120 590L238 736H266L384 590L366 574L254
704H250L138 574L120 590Z" />
<glyph unicode="&#xe3;" glyph-name="atilde" horiz-adv-x="486" d="M198 -12Q170 -12 145 -5T101 18T71 58T60 117Q60 197 136 238T374 298Q375 327 371 356T353 409T317 447T256 462Q230 462 207 457T164 442T128 423T100 404L84 428Q95 436 112 447T152 467T202
483T258 490Q300 490 328 476T373 436T397 379T404 310V0H378L374 64H372Q334 34 290 11T198 -12ZM200 16Q244 16 285 36T374 98V272Q295 263 241 250T154 217T107 174T92 118Q92 90 100 71T124 39T158 22T200 16ZM329 580Q300 580 281 595T245 630T212 664T174
680Q145 680 133 652T118 582L92 584Q93 605 97 627T111 666T136 695T176 706Q204 706 223 691T259 656T292 622T331 606Q359 606 371 635T386 704L412 702Q410 681 406 660T393 620T368 591T329 580Z" />
<glyph unicode="&#xe4;" glyph-name="adieresis" horiz-adv-x="486" d="M198 -12Q170 -12 145 -5T101 18T71 58T60 117Q60 197 136 238T374 298Q375 327 371 356T353 409T317 447T256 462Q230 462 207 457T164 442T128 423T100 404L84 428Q95 436 112 447T152
467T202 483T258 490Q300 490 328 476T373 436T397 379T404 310V0H378L374 64H372Q334 34 290 11T198 -12ZM200 16Q244 16 285 36T374 98V272Q295 263 241 250T154 217T107 174T92 118Q92 90 100 71T124 39T158 22T200 16ZM166 602Q152 602 143 611T134 634Q134
648 143 657T166 666Q180 666 189 657T198 634Q198 620 189 611T166 602ZM338 602Q324 602 315 611T306 634Q306 648 315 657T338 666Q352 666 361 657T370 634Q370 620 361 611T338 602Z" />
<glyph unicode="&#xe5;" glyph-name="aring" horiz-adv-x="486" d="M198 -12Q170 -12 145 -5T101 18T71 58T60 117Q60 197 136 238T374 298Q375 327 371 356T353 409T317 447T256 462Q230 462 207 457T164 442T128 423T100 404L84 428Q95 436 112 447T152 467T202
483T258 490Q300 490 328 476T373 436T397 379T404 310V0H378L374 64H372Q334 34 290 11T198 -12ZM200 16Q244 16 285 36T374 98V272Q295 263 241 250T154 217T107 174T92 118Q92 90 100 71T124 39T158 22T200 16ZM252 546Q213 546 187 572T160 640Q160 682 186
708T252 734Q291 734 317 708T344 640Q344 598 318 572T252 546ZM252 568Q281 568 300 587T320 640Q320 673 301 692T252 712Q223 712 204 693T184 640Q184 607 203 588T252 568Z" />
<glyph unicode="&#xe6;" glyph-name="ae" horiz-adv-x="784" d="M206 -12Q178 -12 153 -5T109 18T79 58T68 116Q68 197 144 238T376 298Q377 327 373 356T355 409T319 447T258 462Q235 462 213 457T171 442T135 423T108 404L92 428Q103 436 120 447T160 467T207
483T260 490Q320 490 354 456T400 364Q426 421 471 455T570 490Q653 490 699 434T746 270Q746 262 746 255T744 238H406Q405 190 418 150T456 79T513 33T584 16Q625 16 655 28T712 60L726 34Q712 26 698 18T668 3T630 -8T582 -12Q549 -12 523 -3T476 20T439 53T410
90Q387 67 361 48T307 16T254 -5T206 -12ZM208 16Q249 16 301 42T398 116Q387 139 382 173T376 244V272Q301 263 249 250T163 217T115 174T100 118Q100 90 108 71T132 39T166 22T208 16ZM406 264H716Q716 364 677 413T570 462Q538 462 510 448T460 407T424 344T406
264Z" />
<glyph unicode="&#xe7;" glyph-name="ccedilla" horiz-adv-x="446" d="M268 -12Q222 -12 183 5T116 54T71 132T54 238Q54 298 71 345T118 424T186 473T268 490Q318 490 351 472T408 430L388 408Q364 431 335 446T268 462Q230 462 197 446T139 400T100 329T86 238Q86
188 99 148T136 78T193 32T268 16Q309 16 342 33T402 74L420 52Q390 25 353 7T268 -12ZM189 -216L183 -190Q249 -185 273 -172T297 -136Q297 -113 279 -102T219 -84L259 2H287L257 -66Q289 -74 308 -89T327 -134Q327 -172 292 -191T189 -216Z" />
<glyph unicode="&#xe8;" glyph-name="egrave" horiz-adv-x="478" d="M272 -12Q227 -12 188 5T118 54T71 133T54 238Q54 296 71 343T117 422T183 472T260 490Q343 490 391 434T440 270Q440 262 440 255T438 238H86Q86 190 99 150T137 79T196 33T274 16Q315 16 347
28T406 60L420 34Q393 17 360 3T272 -12ZM86 266H410Q410 366 369 414T260 462Q228 462 198 449T145 410T106 348T86 266ZM294 574L156 724L180 744L312 590L294 574Z" />
<glyph unicode="&#xe9;" glyph-name="eacute" horiz-adv-x="478" d="M272 -12Q227 -12 188 5T118 54T71 133T54 238Q54 296 71 343T117 422T183 472T260 490Q343 490 391 434T440 270Q440 262 440 255T438 238H86Q86 190 99 150T137 79T196 33T274 16Q315 16 347
28T406 60L420 34Q393 17 360 3T272 -12ZM86 266H410Q410 366 369 414T260 462Q228 462 198 449T145 410T106 348T86 266ZM226 574L208 590L340 744L364 724L226 574Z" />
<glyph unicode="&#xea;" glyph-name="ecircumflex" horiz-adv-x="478" d="M272 -12Q227 -12 188 5T118 54T71 133T54 238Q54 296 71 343T117 422T183 472T260 490Q343 490 391 434T440 270Q440 262 440 255T438 238H86Q86 190 99 150T137 79T196 33T274 16Q315
16 347 28T406 60L420 34Q393 17 360 3T272 -12ZM86 266H410Q410 366 369 414T260 462Q228 462 198 449T145 410T106 348T86 266ZM128 590L246 736H274L392 590L374 574L262 704H258L146 574L128 590Z" />
<glyph unicode="&#xeb;" glyph-name="edieresis" horiz-adv-x="478" d="M272 -12Q227 -12 188 5T118 54T71 133T54 238Q54 296 71 343T117 422T183 472T260 490Q343 490 391 434T440 270Q440 262 440 255T438 238H86Q86 190 99 150T137 79T196 33T274 16Q315 16
347 28T406 60L420 34Q393 17 360 3T272 -12ZM86 266H410Q410 366 369 414T260 462Q228 462 198 449T145 410T106 348T86 266ZM174 602Q160 602 151 611T142 634Q142 648 151 657T174 666Q188 666 197 657T206 634Q206 620 197 611T174 602ZM346 602Q332 602 323
611T314 634Q314 648 323 657T346 666Q360 666 369 657T378 634Q378 620 369 611T346 602Z" />
<glyph unicode="&#xec;" glyph-name="igrave" horiz-adv-x="222" d="M96 0V478H126V0H96ZM145 574L7 724L31 744L163 590L145 574Z" />
<glyph unicode="&#xed;" glyph-name="iacute" horiz-adv-x="222" d="M96 0V478H126V0H96ZM77 574L59 590L191 744L215 724L77 574Z" />
<glyph unicode="&#xee;" glyph-name="icircumflex" horiz-adv-x="222" d="M96 0V478H126V0H96ZM-21 590L97 736H125L243 590L225 574L113 704H109L-3 574L-21 590Z" />
<glyph unicode="&#xef;" glyph-name="idieresis" horiz-adv-x="222" d="M96 0V478H126V0H96ZM25 602Q11 602 2 611T-7 634Q-7 648 2 657T25 666Q39 666 48 657T57 634Q57 620 48 611T25 602ZM197 602Q183 602 174 611T165 634Q165 648 174 657T197 666Q211 666
220 657T229 634Q229 620 220 611T197 602Z" />
<glyph unicode="&#xf0;" glyph-name="eth" horiz-adv-x="532" d="M266 -12Q227 -12 190 3T125 49T79 121T62 218Q62 267 77 307T119 377T184 423T270 440Q361 440 423 361Q409 439 378 495T303 594L162 520L150 542L283 612Q254 638 222 659T156 700L172 722Q209
702 243 679T310 626L452 700L464 678L329 607Q389 546 426 460T464 250Q464 190 450 142T409 59T346 7T266 -12ZM266 16Q309 16 340 34T392 85T422 159T432 250Q432 285 429 315Q409 345 389 364T348 393T307 408T268 412Q225 412 193 396T138 353T105 291T94
218Q94 174 107 137T144 73T199 31T266 16Z" />
<glyph unicode="&#xf1;" glyph-name="ntilde" horiz-adv-x="526" d="M96 0V478H122L126 402H128Q166 440 205 465T294 490Q368 490 403 446T438 308V0H408V304Q408 384 381 423T292 462Q247 462 210 438T126 366V0H96ZM356 580Q327 580 308 595T272 630T239 664T201
680Q172 680 160 652T145 582L119 584Q120 605 124 627T138 666T163 695T203 706Q231 706 250 691T286 656T319 622T358 606Q386 606 398 635T413 704L439 702Q437 681 433 660T420 620T395 591T356 580Z" />
<glyph unicode="&#xf2;" glyph-name="ograve" horiz-adv-x="532" d="M266 -12Q223 -12 185 5T117 54T71 132T54 238Q54 298 71 345T117 424T184 473T266 490Q309 490 347 473T415 424T461 345T478 238Q478 179 461 133T415 54T348 5T266 -12ZM266 16Q304 16 337
32T394 77T432 147T446 238Q446 287 432 328T394 399T337 445T266 462Q228 462 195 446T138 400T100 329T86 238Q86 188 100 148T138 78T195 32T266 16ZM300 574L162 724L186 744L318 590L300 574Z" />
<glyph unicode="&#xf3;" glyph-name="oacute" horiz-adv-x="532" d="M266 -12Q223 -12 185 5T117 54T71 132T54 238Q54 298 71 345T117 424T184 473T266 490Q309 490 347 473T415 424T461 345T478 238Q478 179 461 133T415 54T348 5T266 -12ZM266 16Q304 16 337
32T394 77T432 147T446 238Q446 287 432 328T394 399T337 445T266 462Q228 462 195 446T138 400T100 329T86 238Q86 188 100 148T138 78T195 32T266 16ZM232 574L214 590L346 744L370 724L232 574Z" />
<glyph unicode="&#xf4;" glyph-name="ocircumflex" horiz-adv-x="532" d="M266 -12Q223 -12 185 5T117 54T71 132T54 238Q54 298 71 345T117 424T184 473T266 490Q309 490 347 473T415 424T461 345T478 238Q478 179 461 133T415 54T348 5T266 -12ZM266 16Q304
16 337 32T394 77T432 147T446 238Q446 287 432 328T394 399T337 445T266 462Q228 462 195 446T138 400T100 329T86 238Q86 188 100 148T138 78T195 32T266 16ZM134 590L252 736H280L398 590L380 574L268 704H264L152 574L134 590Z" />
<glyph unicode="&#xf5;" glyph-name="otilde" horiz-adv-x="532" d="M266 -12Q223 -12 185 5T117 54T71 132T54 238Q54 298 71 345T117 424T184 473T266 490Q309 490 347 473T415 424T461 345T478 238Q478 179 461 133T415 54T348 5T266 -12ZM266 16Q304 16 337
32T394 77T432 147T446 238Q446 287 432 328T394 399T337 445T266 462Q228 462 195 446T138 400T100 329T86 238Q86 188 100 148T138 78T195 32T266 16ZM343 580Q314 580 295 595T259 630T226 664T188 680Q159 680 147 652T132 582L106 584Q107 605 111 627T125
666T150 695T190 706Q218 706 237 691T273 656T306 622T345 606Q373 606 385 635T400 704L426 702Q424 681 420 660T407 620T382 591T343 580Z" />
<glyph unicode="&#xf6;" glyph-name="odieresis" horiz-adv-x="532" d="M266 -12Q223 -12 185 5T117 54T71 132T54 238Q54 298 71 345T117 424T184 473T266 490Q309 490 347 473T415 424T461 345T478 238Q478 179 461 133T415 54T348 5T266 -12ZM266 16Q304 16
337 32T394 77T432 147T446 238Q446 287 432 328T394 399T337 445T266 462Q228 462 195 446T138 400T100 329T86 238Q86 188 100 148T138 78T195 32T266 16ZM180 602Q166 602 157 611T148 634Q148 648 157 657T180 666Q194 666 203 657T212 634Q212 620 203 611T180
602ZM352 602Q338 602 329 611T320 634Q320 648 329 657T352 666Q366 666 375 657T384 634Q384 620 375 611T352 602Z" />
<glyph unicode="&#xf7;" glyph-name="divide" horiz-adv-x="472" d="M34 316V344H438V316H34ZM236 114Q222 114 213 123T204 150Q204 165 213 174T236 184Q250 184 259 175T268 150Q268 133 259 124T236 114ZM236 474Q222 474 213 483T204 510Q204 525 213 534T236
544Q250 544 259 535T268 510Q268 493 259 484T236 474Z" />
<glyph unicode="&#xf8;" glyph-name="oslash" horiz-adv-x="532" d="M266 -12Q226 -12 190 2T125 46L68 -22L46 -4L106 68Q82 100 68 142T54 238Q54 298 71 345T117 424T184 473T266 490Q307 490 343 475T408 431L464 498L486 480L427 409Q451 377 464 335T478
238Q478 179 461 133T415 54T348 5T266 -12ZM86 238Q86 194 96 158T126 93L388 407Q364 433 333 447T266 462Q228 462 195 446T138 400T100 329T86 238ZM266 16Q304 16 337 32T394 77T432 147T446 238Q446 282 436 318T406 384L144 70Q168 44 199 30T266 16Z" />
<glyph unicode="&#xf9;" glyph-name="ugrave" horiz-adv-x="524" d="M232 -12Q158 -12 123 32T88 170V478H118V174Q118 94 145 55T234 16Q279 16 316 41T398 120V478H428V0H402L398 82H396Q360 40 321 14T232 -12ZM296 574L158 724L182 744L314 590L296 574Z" />
<glyph unicode="&#xfa;" glyph-name="uacute" horiz-adv-x="524" d="M232 -12Q158 -12 123 32T88 170V478H118V174Q118 94 145 55T234 16Q279 16 316 41T398 120V478H428V0H402L398 82H396Q360 40 321 14T232 -12ZM228 574L210 590L342 744L366 724L228 574Z" />
<glyph unicode="&#xfb;" glyph-name="ucircumflex" horiz-adv-x="524" d="M232 -12Q158 -12 123 32T88 170V478H118V174Q118 94 145 55T234 16Q279 16 316 41T398 120V478H428V0H402L398 82H396Q360 40 321 14T232 -12ZM130 590L248 736H276L394 590L376 574L264
704H260L148 574L130 590Z" />
<glyph unicode="&#xfc;" glyph-name="udieresis" horiz-adv-x="524" d="M232 -12Q158 -12 123 32T88 170V478H118V174Q118 94 145 55T234 16Q279 16 316 41T398 120V478H428V0H402L398 82H396Q360 40 321 14T232 -12ZM176 602Q162 602 153 611T144 634Q144 648
153 657T176 666Q190 666 199 657T208 634Q208 620 199 611T176 602ZM348 602Q334 602 325 611T316 634Q316 648 325 657T348 666Q362 666 371 657T380 634Q380 620 371 611T348 602Z" />
<glyph unicode="&#xfd;" glyph-name="yacute" horiz-adv-x="424" d="M66 -222Q40 -222 20 -212L28 -184Q36 -187 46 -189T68 -192Q113 -192 144 -154T196 -56L210 -12L12 478H46L168 164Q180 134 194 98T222 30H226Q238 62 249 98T272 164L380 478H412L220 -68Q211
-96 198 -123T165 -173T122 -208T66 -222ZM190 574L172 590L304 744L328 724L190 574Z" />
<glyph unicode="&#xfe;" glyph-name="thorn" horiz-adv-x="540" d="M96 -222V722H126V416Q164 445 206 467T294 490Q391 490 438 424T486 246Q486 185 469 137T423 56T356 6T274 -12Q239 -12 202 3T126 48V-222H96ZM276 16Q315 16 347 33T404 80T441 153T454 246Q454
292 446 331T418 400T367 445T292 462Q254 462 214 441T126 378V82Q170 46 208 31T276 16Z" />
<glyph unicode="&#xff;" glyph-name="ydieresis" horiz-adv-x="424" d="M66 -222Q40 -222 20 -212L28 -184Q36 -187 46 -189T68 -192Q113 -192 144 -154T196 -56L210 -12L12 478H46L168 164Q180 134 194 98T222 30H226Q238 62 249 98T272 164L380 478H412L220
-68Q211 -96 198 -123T165 -173T122 -208T66 -222ZM138 602Q124 602 115 611T106 634Q106 648 115 657T138 666Q152 666 161 657T170 634Q170 620 161 611T138 602ZM310 602Q296 602 287 611T278 634Q278 648 287 657T310 666Q324 666 333 657T342 634Q342 620
333 611T310 602Z" />
<glyph unicode="&#x2013;" glyph-name="endash" horiz-adv-x="480" d="M40 236V264H440V236H40Z" />
<glyph unicode="&#x2014;" glyph-name="emdash" horiz-adv-x="800" d="M40 236V264H760V236H40Z" />
<glyph unicode="&#x2018;" glyph-name="quoteleft" horiz-adv-x="208" d="M96 500Q79 500 69 514T58 558Q58 609 79 644T136 706L152 688Q120 661 104 634T88 565Q90 566 96 566Q108 566 119 559T130 534Q130 517 121 509T96 500Z" />
<glyph unicode="&#x2019;" glyph-name="quoteright" horiz-adv-x="208" d="M72 494L56 512Q87 539 103 566T120 635Q118 634 112 634Q100 634 89 641T78 666Q78 683 87 691T112 700Q129 700 139 686T150 642Q150 591 129 556T72 494Z" />
<glyph unicode="&#x201a;" glyph-name="quotesinglbase" horiz-adv-x="208" d="M72 -125L56 -107Q87 -80 103 -53T120 16Q118 15 112 15Q100 15 89 22T78 47Q78 64 87 72T112 81Q129 81 139 67T150 23Q150 -28 129 -63T72 -125Z" />
<glyph unicode="&#x201c;" glyph-name="quotedblleft" horiz-adv-x="336" d="M96 500Q79 500 69 514T58 558Q58 609 79 644T136 706L152 688Q120 661 104 634T88 565Q90 566 96 566Q108 566 119 559T130 534Q130 517 121 509T96 500ZM224 500Q207 500 197 514T186
558Q186 609 207 644T264 706L280 688Q248 661 232 634T216 565Q218 566 224 566Q236 566 247 559T258 534Q258 517 249 509T224 500Z" />
<glyph unicode="&#x201d;" glyph-name="quotedblright" horiz-adv-x="336" d="M72 494L56 512Q87 539 103 566T120 635Q118 634 112 634Q100 634 89 641T78 666Q78 683 87 691T112 700Q129 700 139 686T150 642Q150 591 129 556T72 494ZM200 494L184 512Q215 539
231 566T248 635Q246 634 240 634Q228 634 217 641T206 666Q206 683 215 691T240 700Q257 700 267 686T278 642Q278 591 257 556T200 494Z" />
<glyph unicode="&#x201e;" glyph-name="quotedblbase" horiz-adv-x="336" d="M72 -125L56 -107Q87 -80 103 -53T120 16Q118 15 112 15Q100 15 89 22T78 47Q78 64 87 72T112 81Q129 81 139 67T150 23Q150 -28 129 -63T72 -125ZM200 -125L184 -107Q215 -80 231 -53T248
16Q246 15 240 15Q228 15 217 22T206 47Q206 64 215 72T240 81Q257 81 267 67T278 23Q278 -28 257 -63T200 -125Z" />
<glyph unicode="&#x2022;" glyph-name="bullet" horiz-adv-x="272" d="M136 158Q118 158 101 165T70 186T48 219T40 264Q40 289 48 308T69 341T100 362T136 370Q154 370 171 363T201 342T223 309T232 264Q232 239 224 220T202 187T171 166T136 158Z" />
<glyph unicode="&#x2039;" glyph-name="guilsinglleft" horiz-adv-x="254" d="M180 74L42 238V266L180 430L200 412L76 252L200 90L180 74Z" />
<glyph unicode="&#x203a;" glyph-name="guilsinglright" horiz-adv-x="254" d="M74 74L54 90L178 252L54 412L74 430L212 266V238L74 74Z" />
</font>
</defs>
</svg>
